#TITLE:party 4u;
#SUBTITLE:-holy nite mix-;
#ARTIST:cranky;
#TITLETRANSLIT:;
#SUBTITLETRANSLIT:;
#ARTISTTRANSLIT:;
#CREDIT:;
#BANNER:Party4U.png;
#BACKGROUND:Party4u-bg.PNG;
#LYRICSPATH:;
#CDTITLE:izzyvshst.png;
#MUSIC:party4u.mp3;
#OFFSET:-1.620;
#SAMPLESTART:42.000;
#SAMPLELENGTH:15.940;
#SELECTABLE:YES;
#BPMS:0.000=80.000,16.000=159.000;
#STOPS:;
#BGCHANGES:;
// cache tags:
#FIRSTBEAT:0.000;
#LASTBEAT:248.000;
#SONGFILENAME:Songs/Music V.I.P ^_^/Party 4U- Izzy vs. HST/Party4U.sm;
#HASMUSIC:1;
#HASBANNER:1;
#MUSICLENGTH:105.493;
// end cache tags

//---------------dance-single - MANIAC----------------
#NOTES:
     dance-single:
     MANIAC:
     Hard:
     11:
     1.000,1.000,1.000,0.284,1.000,622.000,200.000,30.000,0.000,7.000:
2100
0000
3210
0000
,
0321
0000
0132
0010
,
0123
0000
0231
0000
,
2310
0000
3210
0310
,
1001
0000
0100
0000
1001
0000
0100
0001
0100
0001
0100
0000
1001
0000
1001
0000
,
0110
0000
0001
0000
0110
0000
1000
0001
1000
0001
1000
0000
0110
0000
0110
0000
,
1010
0000
0100
0000
1010
0000
0001
0100
0001
0100
0001
0000
0011
0000
0011
0000
,
1100
0000
0001
0000
1100
0000
0001
0010
0100
0010
0001
0000
0011
0000
0011
0000
,
1100
0000
0010
0000
1100
0000
0001
1000
0100
0010
0001
0000
0101
0000
0101
0000
,
0110
0000
1000
0000
1001
0000
1000
0100
0010
0100
1000
0000
0110
0000
0110
0000
,
1100
0000
0011
0000
1100
0000
0010
0100
0010
0100
0010
0000
0110
0000
0110
0000
,
0101
1001
0101
0011
1001
2002
0000
0000
,
0000
0000
0000
0000
3003
0000
0000
0000
0010
0000
0001
0000
1000
0000
0100
0000
0010
0000
0001
0000
1000
0100
0010
0001
1000
0100
0010
0001
1000
0100
0010
0000
,
0001
1010
1001
0110
1001
0110
1001
1100
,
1001
0100
0010
0001
1000
0010
0100
0001
1000
0010
0100
0001
0010
0100
0010
0001
,
1100
1000
1001
0001
0011
0010
0110
1001
,
0101
0010
0100
1000
0010
0100
0001
0010
0100
1000
0010
1000
0100
0010
0001
0100
,
1010
1000
1001
0001
0101
0100
0110
1010
,
1100
0010
0001
1000
0010
0100
0001
0010
0100
1000
0001
0010
0100
1000
0001
0010
,
1001
0001
0011
0010
0110
0100
1100
0110
,
1001
0100
0001
0100
0010
1000
0100
0010
0001
0010
0100
1000
0010
0100
0001
0010
,
1001
1010
0101
0011
1100
0101
1001
0000
,
0011
0100
0000
1001
0100
0000
1010
0100
0000
0110
0001
0000
0101
0000
0011
0000
,
0110
1000
0000
1100
0010
0000
0101
1000
0000
1001
0010
0000
1010
0000
0110
0000
,
0101
0010
0000
0011
0100
0000
0110
0001
0000
1100
0010
0000
0110
0000
0011
0000
,
0101
1000
0000
0110
0001
0000
1010
0100
0000
1100
0010
0000
1010
0000
1001
0000
,
1001
0010
0000
0011
1000
0000
0110
0001
0000
1100
0010
0000
0110
0000
0011
0000
,
1001
0100
0000
1010
0001
0000
0110
1000
0000
0101
0010
0000
0011
0000
0110
0000
,
1100
0001
0000
1100
0010
0000
1001
0010
0000
0110
1000
0000
0011
0000
0110
0000
,
1000
0000
0001
0000
1000
0000
0001
0000
1000
0000
0001
0000
0010
0100
1000
0100
0010
0000
0000
0000
1010
0000
0000
0000
0110
0000
0000
0000
0101
0000
0000
0000
,
0001
0010
0000
0010
0001
0000
0001
1000
0000
1000
0001
0000
0101
0000
1001
0000
,
0001
1000
0010
0100
0010
1000
0100
0010
0001
0010
0100
1000
0020
0000
0030
0000
,
1000
0100
0000
0100
1000
0000
1000
0010
0000
0010
0100
0000
0110
0000
0101
0000
,
0100
0001
0010
0100
1000
0010
0100
0010
1000
0100
0010
0001
0200
0000
0300
0000
,
0100
0001
0000
0001
0100
0000
0100
0010
0000
0010
1000
0000
1100
0000
0101
0000
,
0001
0010
0001
1000
0010
0100
0010
1000
0100
0010
0001
0100
0020
0000
0030
0000
,
2020
0000
3030
0110
0101
0011
0110
1100
,
1001
0000
0011
0000
0110
0000
1100
0000
0110
0000
1000
0001
0000
0001
0010
0001
,
0200
0000
0301
0100
0001
0000
1000
0100
1000
0000
0010
1000
0010
0000
0100
0001
,
0210
0000
0310
1000
0010
0000
1000
0100
1000
0000
0001
1000
0001
0000
0010
0001
,
1100
0000
0100
0010
0100
0000
1000
0100
1000
0000
0010
1000
0010
0000
0100
0001
,
1010
0000
0100
0001
1010
0000
0100
0001
1010
0000
0101
0000
1001
0000
0001
0000
,
0002
0000
1003
0100
1000
0000
0010
0100
0010
0000
1000
0001
1000
0000
0001
1000
,
0011
0000
0010
0001
0010
0000
0100
0010
0100
0000
1000
0100
1000
0000
0001
0100
,
1010
0000
1000
0100
1000
0000
0001
0100
0001
0000
0010
0001
0010
0000
0100
0010
,
1100
0000
0100
0010
1100
0000
0100
0010
1100
0000
0100
0010
1100
0000
0000
0000
,
1001
0000
0000
1010
0000
0000
0110
0000
0000
0101
0000
0000
0011
0000
0110
0000
,
1100
0000
0000
0101
0000
0000
1002
0000
0003
0000
0000
0000
0000
0000
0000
0000
,
1010
0000
0000
0110
0000
0000
0101
0000
0000
0110
0000
0000
1010
0000
1100
0000
,
0110
0000
0000
0011
0000
0000
1002
0000
0003
0000
0000
0000
0000
0000
0000
0000
,
1010
0000
0000
0110
0000
0000
0101
0000
0000
0110
0000
0000
1010
0000
1100
0000
,
0110
0000
0000
0011
0000
0000
1002
0000
0003
0000
2002
0000
3003
0000
0000
0000
,
1010
0000
0000
0110
0000
0000
0101
0000
0000
0110
0000
0000
1010
0000
1100
0000
,
0110
0000
0000
0011
0000
0000
1002
0000
0003
1000
0000
0000
1000
0000
0000
0000
,
1001
0100
1000
0010
0100
0010
1000
0100
0010
0001
0100
0001
0010
0100
1000
0100
,
1001
0100
1000
0010
0100
0010
1000
0100
0010
0001
0100
0001
0010
0100
0010
1000
,
0101
0010
1000
0100
1000
0010
0100
0001
0010
0100
1000
0010
0100
0010
1000
0100
,
0011
0100
1000
0010
1100
0010
0100
0001
0110
1000
0100
1000
0011
0000
0110
0000
,
1100
0010
0100
0001
0100
0010
1000
0100
1000
0001
0100
0010
1000
0100
0010
1000
,
0101
0010
1000
0010
0100
0001
1000
0010
1000
0100
0010
0001
1000
0010
0100
0010
,
1001
0100
0010
0001
1000
0001
0010
0100
1000
0010
0100
0001
0010
0100
1000
0100
,
0020
0000
0030
0001
0020
0000
0230
0000
0320
0000
0030
0000
2002
0000
0000
0000
,
3003
0000
0000
0000
;
